Watch Movie
Desi Inddian Sexy village bhabi Resmi
personaloanvnt.com - The Largest Bittorent System Login   |    Register
Latest Articles
Most searched
Hot torrents
Movie Torrents
Hot torrents
TV Torrents
View Torrent Info: Arrow.S06E18.HDTV.x264-SVA[eztv]
View Torrent Info: Lucifer.S03E20.HDTV.x264-KILLERS[eztv]
View Torrent Info: Fear.the.Walking.Dead.S04E01.HDTV.x264-SVA[eztv]
View Torrent Info: Lethal.Weapon.S02E18.WEB.x264-TBS[eztv]
View Torrent Info: Supernatural.S13E18.HDTV.x264-SVA[eztv]
View Torrent Info: Young.Sheldon.S01E18.HDTV.x264-SVA[eztv]
View Torrent Info: Billions.S03E04.WEBRip.x264-PBS[eztv]
View Torrent Info: Black.Lightning.S01E12.HDTV.x264-SVA[eztv]
View Torrent Info: Brooklyn.Nine-Nine.S05E16.WEB.x264-TBS[eztv]
View Torrent Info: Homeland.S07E10.WEB.H264-DEFLATE[eztv]
personaloanvnt.com > Categories > Movies torrents > Bollywood/Desi torrents


Browse Movies torrents

Baaghi 2 (2018) [Hindi - HDRip - x264 - 700MB] - Team TR torrent



Download torrent: Download Baaghi 2 (2018) [Hindi - HDRip - x264 - 700MB] - Team TR torrent Magnet link Bookmark Torrent: Baaghi 2 (2018) [Hindi - HDRip - x264 - 700MB] - Team TR Baaghi 2 (2018) [Hindi - HDRip - x264 - 700MB] - Team TR torrent | if not working, try instead: Magnet Link
Info hash: D3B6E2B90DADF9802D2AC6428215C8CE274BC88A
Category: Categories > Movies torrents > Bollywood/Desi torrents
Trackers:
1    View all torrent trackers >
Health:
 seeds: 34 ,  leechers: 6 |  Update >
Total Size: 698.60 MB
Torrent status: Added by trusted uploader Added by trusted uploader Trusted Uploader Site Friend Superman Sun
Uploader: Trusted Uploader Site Friend Superman Sun
Torrent added: 2018-04-16 23:12:07
 

Download Baaghi 2 (2018) [Hindi - HDRip - x264 - 700MB] - Team TR torrent if not working, try downloading torrent using Download Baaghi 2 (2018) [Hindi - HDRip - x264 - 700MB] - Team TR via Magnet Link




Torrent Description

Baaghi 2 (2018) [Hindi - HDRip - x264 - 700MB] - Team TR



SCREENSHOTS

Team TamilRockers Exclusive

Source : DesireMovies (Thanks a lot)

MEDIA INFO
General
Format                         : Matroska
Format version                 : Version 4 / Version 2
File size                      : 704 MiB
Duration                       : 2 h 27 min
Overall bit rate               : 666 kb/s

Video
ID                             : 1
Format                         : AVC
Format/Info                    : Advanced Video Codec
Duration                       : 2 h 27 min
Bit rate                       : 618 kb/s
Width                          : 720 pixels
Height                         : 320 pixels
Display aspect ratio           : 2.25:1
Frame rate mode                : Constant
Frame rate                     : 25.000 FPS
Stream size                    : 651 MiB (93%)
Language                       : Hindi
Default                        : Yes
Forced                         : No


Audio
ID                             : 2
Format                         : MPEG Audio
Format version                 : Version 1
Format profile                 : Layer 3
Format settings                : Joint stereo / MS Stereo
Codec ID                       : A_MPEG/L3
Codec ID/Hint                  : MP3
Duration                       : 2 h 27 min
Bit rate mode                  : Constant
Bit rate                       : 48.0 kb/s
Channel(s)                     : 2 channels
Sampling rate                  : 48.0 kHz
Frame rate                     : 41.667 FPS (1152 SPF)
Compression mode               : Lossy
Delay relative to video        : -23 ms
Stream size                    : 50.7 MiB (7%)
Language                       : Hindi
Default                        : Yes
Forced                         : No




#RockerS -> To avoid fakes, ALWAYS check that the torrent was added on personaloanvnt.com by RockerS

http://personaloanvnt.com/



Download Baaghi 2 (2018) [Hindi - HDRip - x264 - 700MB] - Team TR torrent


Comments (please add your comment)
No comments



Home - Browse Torrents - Upload Torrent - Stat - Forum - FAQ - Login
personaloanvnt.com is in compliance with copyrights
2006-2018 personaloanvnt.com